Register

APACHE CLIPS IS A NOT FOR PROFIT SITE DEDICATED TO OUR ARMED FORCES.

ALL PROFITS GENERATED WILL BE DONATED TO THE WOUNDED WARRIOR PROJECT OR THE SEMPER FI FUND.


WELCOME GUEST, BE SURE TO REGISTER AS A MEMBER, SO THAT YOU CAN TAKE ADVANTAGE OF ALL THE FEATURES WE HAVE TO OFFER!
BE SURE TO CHECK OUT FAQ SECTION IF YOU HAVE ANY QUESTIONS.

Results 1 to 3 of 3
  1. #1

    Join Date
    Jul 2011
    Location
    Dordrecht ; The Netherlands
    Posts
    87
    Like
    26
    Dislike
    0

    Default History Channel - U.S Marines First to Fight



    In US MARINES: FIRST TO FIGHT, viewers get a behind-the-scenes look at the 11th Marine Expeditionary Unit (MEU) as they prepare for their upcoming overseas deployment.

    Complete name : U.S.Marines.First.to.Fight.S01E01.Part.1.PDTV.XViD-F13.avi
    Format : AVI
    Format/Info : Audio Video Interleave
    File size : 350 MiB
    Duration : 41mn 30s
    Overall bit rate : 1 177 Kbps

    Video
    Format : MPEG-4 Visual
    Codec ID : XVID
    Codec ID/Hint : XviD
    Duration : 41mn 30s
    Bit rate : 1 053 Kbps
    Width : 608 pixels
    Height : 352 pixels
    Display aspect ratio : 16/9
    Frame rate : 29.970 fps
    Resolution : 24 bits
    Colorimetry : 4:2:0
    Scan type : Progressive
    Bits/(Pixel*Frame) : 0.164
    Stream size : 313 MiB (89%)
    Writing library : XviD 50

    Audio
    Format : MPEG Audio
    Format version : Version 1
    Format profile : Layer 3
    Codec ID : 55
    Codec ID/Hint : MP3
    Duration : 41mn 30s
    Bit rate mode : Variable
    Bit rate : 111 Kbps
    Minimum bit rate : 128 Kbps
    Channel(s) : 2 channels
    Sampling rate : 48.0 KHz
    Resolution : 16 bits
    Stream size : 32.8 MiB (9%)
    Alignment : Aligned on interleaves
    Interleave, duration : 24 ms (0.72 video frame)
    Interleave, preload duration : 500 ms
    Writing library : LAME3.98r
    Encoding settings : ABR

    General
    Complete name : U.S.Marines.First.to.Fight.S01E02.Part.2.PDTV.XViD-F13.avi
    Format : AVI
    Format/Info : Audio Video Interleave
    File size : 349 MiB
    Duration : 46mn 15s
    Overall bit rate : 1 056 Kbps

    Video
    Format : MPEG-4 Visual
    Codec ID : XVID
    Codec ID/Hint : XviD
    Duration : 46mn 15s
    Bit rate : 933 Kbps
    Width : 608 pixels
    Height : 352 pixels
    Display aspect ratio : 16/9
    Frame rate : 29.970 fps
    Resolution : 24 bits
    Colorimetry : 4:2:0
    Scan type : Progressive
    Bits/(Pixel*Frame) : 0.145
    Stream size : 309 MiB (88%)
    Writing library : XviD 50

    Audio
    Format : MPEG Audio
    Format version : Version 1
    Format profile : Layer 3
    Codec ID : 55
    Codec ID/Hint : MP3
    Duration : 46mn 15s
    Bit rate mode : Variable
    Bit rate : 110 Kbps
    Minimum bit rate : 128 Kbps
    Channel(s) : 2 channels
    Sampling rate : 48.0 KHz
    Resolution : 16 bits
    Stream size : 36.4 MiB (10%)
    Alignment : Aligned on interleaves
    Interleave, duration : 24 ms (0.72 video frame)
    Interleave, preload duration : 503 ms
    Writing library : LAME3.98r
    Encoding settings : ABR

    Click to Download : History Channel - U.S Marines First to Fight

    Enjoy

  2. Likes

    nastyleg (09-26-2011)
  3. #2

    Join Date
    Jul 2011
    Location
    Dordrecht ; The Netherlands
    Posts
    87
    Like
    26
    Dislike
    0

    Default

    I think u would love this one Nastyleg

  4. #3
    Moderator
    Join Date
    Apr 2009
    Location
    In a desert cave
    Posts
    3,087
    Like
    1,411
    Dislike
    2

    Default

    The sniper was actually. This one is good just not my favorite
    For any support questions please contact the AC staff team via the Contact formor via email apacheclips.support@gmail.com.

    Thank you.

 

 

Bookmarks

Posting Permissions

  • You may not post new threads
  • You may not post replies
  • You may not post attachments
  • You may not edit your posts
  •  
Back to Top